<?xml version="1.0" standalone="no"?>
<!DOCTYPE svg PUBLIC "-//W3C//DTD SVG 1.1//EN" "http://www.w3.org/Graphics/SVG/1.1/DTD/svg11.dtd" >
<svg>
<metadata>
Created by FontForge 20110222 at Fri Feb 17 12:34:19 2012
 By www-data
The programs to draw the splines of this font are Copyright (c) 2000,2001 by George Williams.
</metadata>
<defs>
<font id="Monospace" horiz-adv-x="600" >
  <font-face 
    font-family="Monospace"
    font-weight="500"
    font-stretch="normal"
    units-per-em="1000"
    panose-1="2 0 6 3 0 0 0 0 0 0"
    ascent="800"
    descent="-200"
    x-height="426"
    cap-height="562"
    bbox="-486 -214.96 600 824"
    underline-thickness="37"
    underline-position="-82"
    unicode-range="U+0020-2122"
  />
    <missing-glyph />
    <glyph glyph-name="space" unicode=" " 
 />
    <glyph glyph-name="exclam" unicode="!" 
d="M297 610l-10 -454h-37l-10 454h57zM203 38q0 35 36 50q13 6 29 6q40 0 58 -32q6 -11 6 -24q0 -34 -35 -50q-14 -6 -29 -6q-41 0 -59 32q-6 11 -6 24z" />
    <glyph glyph-name="quotedbl" unicode="&#x22;" 
d="M204 591v-182h-37v182h37zM367 591v-182h-37v182h37z" />
    <glyph glyph-name="numbersign" unicode="#" 
d="M237 403l-50 -193h112l50 193h-112zM293 616l-46 -176h111l46 176h38l-46 -176h158v-37h-168l-50 -193h125v-37h-135l-45 -173h-37l45 173h-112l-45 -173h-37l45 173h-140v37h150l50 193h-109v37h118l46 176h38z" />
    <glyph glyph-name="dollar" unicode="$" 
d="M471 580l-21 -52q-3 -9 -3 -16q0 -50 25 -83h-35q-20 47 -70 75q-31 18 -63 18q-86 0 -124 -46q-18 -22 -18 -51q0 -67 75 -100q12 -5 104 -34q91 -29 118 -73q17 -28 17 -66q0 -86 -87 -123q-33 -14 -71 -18v-85h-37v84q-59 6 -105 49q-7 -36 -18 -59h-34l14 42
q9 27 9 44q0 25 -20 63q-2 3 -3 5h34l13 -29q37 -64 103 -77q12 -2 24 -2q81 0 120 48q21 25 21 58q0 61 -73 92q-9 4 -101 33q-93 30 -122 76q-18 30 -18 71q0 84 93 119q29 11 63 15v96h37v-96q53 -5 98 -43q1 25 21 65h34z" />
    <glyph glyph-name="percent" unicode="%" 
d="M367 207q74 0 116 -43q25 -26 25 -59q0 -55 -62 -85q-37 -17 -79 -17q-73 0 -115 43q-25 26 -25 59q0 55 63 85q36 17 77 17zM367 170q-49 0 -85 -33q-18 -16 -18 -32q0 -31 41 -52q27 -13 62 -13q65 0 94 38q10 13 10 27q4 31 -43 52q-30 13 -61 13zM226 566
q72 0 115 -43q25 -25 25 -58q0 -55 -63 -85q-36 -17 -77 -17q-74 0 -116 43q-25 26 -25 58q0 55 62 85q37 17 79 17zM226 529q-66 0 -95 -38q-9 -13 -9 -26q0 -31 40 -51q28 -14 64 -14q65 0 93 38q10 13 10 26q0 31 -41 52q-27 13 -62 13zM65 161l451 285l19 -31l-451 -285
z" />
    <glyph glyph-name="ampersand" unicode="&#x26;" 
d="M224 292q-140 -70 -141 -142q0 -57 57 -88q34 -19 75 -19q48 0 82 36q1 0 44 51q6 8 18 22zM538 334l-113 -158q-8 -10 -16 -21l145 -142l-26 -26l-142 139l-17 -20q-47 -56 -58 -65q-40 -35 -96 -35q-77 0 -128 50q-41 39 -41 94q0 91 141 164q5 3 11 6l-9 10l-48 50
q-22 27 -22 63q0 82 73 105q22 7 48 7h64v-37h-64q-73 0 -83 -58q-1 -8 -1 -17q0 -25 44 -72q18 -18 21 -22q92 -99 162 -168q17 22 90 126q17 24 35 49z" />
    <glyph glyph-name="quotesingle" unicode="'" 
d="M286 591v-182h-37v182h37z" />
    <glyph glyph-name="parenleft" unicode="(" 
d="M444 615l-31 -39q-115 -145 -125 -316q-1 -14 -1 -28q0 -123 73 -259q42 -77 93 -127h-48l-18 19q-123 147 -136 330q-1 18 -1 37q0 145 75 281q33 60 74 102h45z" />
    <glyph glyph-name="parenright" unicode=")" 
d="M81 615h45q93 -95 131 -250q17 -69 17 -133q0 -184 -116 -341q-10 -13 -21 -26l-17 -19h-48q89 87 137 232q28 83 28 154q0 173 -110 324l-16 20z" />
    <glyph glyph-name="asterisk" unicode="*" 
d="M115 154l121 167l-195 62l12 35l194 -62v207h37v-207l196 62l12 -35l-196 -62l120 -167l-30 -21l-120 166l-121 -166z" />
    <glyph glyph-name="plus" unicode="+" 
d="M285 461v-172h176v-37h-176v-174h-37v174h-171v37h171v172h37z" />
    <glyph glyph-name="comma" unicode="," 
d="M228 112l-120 -246h-46l82 246h84z" />
    <glyph glyph-name="hyphen" unicode="-" 
d="M77 290h385v-37h-385v37z" />
    <glyph glyph-name="period" unicode="." 
d="M119 46q0 37 38 55q15 7 33 7q43 0 63 -34q8 -13 8 -28q0 -37 -38 -55q-15 -7 -33 -7q-43 0 -63 34q-8 13 -8 28z" />
    <glyph glyph-name="slash" unicode="/" 
d="M82 -84l368 716h40l-367 -716h-41z" />
    <glyph glyph-name="zero" unicode="0" 
d="M300 564q161 0 168 -257v-25q0 -253 -133 -280q-17 -3 -35 -3q-161 0 -168 257v25q0 255 135 280q15 3 33 3zM300 527q-103 0 -124 -142q-7 -44 -7 -103q0 -204 87 -238q19 -8 44 -8q88 0 119 129q12 53 12 116q0 246 -131 246z" />
    <glyph glyph-name="one" unicode="1" 
d="M127 31h159v487l-144 -104l-20 24l174 124h23v-531h159v-31h-159h-33h-159v31z" />
    <glyph glyph-name="two" unicode="2" 
d="M127 362v47q30 110 106 140q34 13 78 13q86 0 132 -52q30 -33 30 -81q0 -85 -80 -146q-13 -10 -84 -56l-75 -47q-57 -42 -57 -100v-46h262v89h34v-123h-333v80q0 78 87 140l132 83q20 15 35 29q42 42 42 97q0 58 -61 84q-30 13 -69 13q-109 0 -135 -104q-7 -28 -7 -60
h-37z" />
    <glyph glyph-name="three" unicode="3" 
d="M412 311q66 -43 71 -134v-11q0 -84 -76 -133q-52 -33 -117 -33q-76 0 -135 59q-3 3 -35 37l27 26q45 -49 63 -62q34 -23 80 -23q78 0 125 50q31 34 31 79q0 68 -44 108q-23 21 -50 21h-66v37h66q54 0 82 44q13 20 13 43q0 71 -76 96q-31 11 -72 11q-88 0 -153 -89l-30 21
q69 99 172 105h11q111 0 160 -65q25 -34 25 -79q0 -62 -55 -98q-8 -6 -17 -10z" />
    <glyph glyph-name="four" unicode="4" 
d="M387 492l-246 -297h246v297zM424 195h81v-37h-81v-124h89v-34h-216v34h90v124h-300v29q0 1 309 375h28v-367z" />
    <glyph glyph-name="five" unicode="5" 
d="M109 105q82 -62 167 -68q12 -1 24 -1q93 0 144 57q32 37 32 86q0 97 -90 122q-27 8 -60 8h-153v253h340v-37h-303v-179h116q117 0 164 -77q23 -38 23 -90q0 -99 -91 -150q-55 -30 -122 -30q-108 0 -205 70l-8 6z" />
    <glyph glyph-name="six" unicode="6" 
d="M171 181q0 -101 69 -134q26 -12 59 -12q83 0 116 67q14 30 14 66q0 68 -53 107q-33 24 -73 24q-59 0 -102 -46q-30 -33 -30 -72zM171 276q52 54 120 59q6 1 12 1q80 0 129 -65q34 -45 34 -103q0 -89 -64 -138q-42 -32 -103 -32q-104 0 -145 88q-20 41 -20 95v197
q0 85 72 141q55 43 125 43h136v-37h-136q-77 0 -126 -57q-34 -40 -34 -90v-102z" />
    <glyph glyph-name="seven" unicode="7" 
d="M267 0l165 525h-273v-93h-34v130h350v-23l-170 -539h-38z" />
    <glyph glyph-name="eight" unicode="8" 
d="M432 178q0 80 -54 116q-23 16 -49 16h-58q-57 0 -86 -53q-17 -33 -17 -79q0 -89 40 -119q31 -23 92 -23q132 0 132 142zM271 347h58q51 0 80 42q15 22 15 48q0 56 -62 80q-28 10 -62 10q-78 0 -110 -46q-14 -20 -14 -45q0 -48 45 -75q23 -14 50 -14zM469 178
q0 -135 -101 -168q-30 -10 -68 -10q-145 0 -165 125q-4 24 -4 53q0 102 68 148q2 1 5 3q-54 30 -63 88q-2 9 -2 19q0 77 80 111q38 16 81 16q82 0 129 -47q32 -32 32 -79q0 -63 -54 -101q-6 -4 -13 -8q61 -38 73 -120q2 -15 2 -30z" />
    <glyph glyph-name="nine" unicode="9" 
d="M373 385q0 103 -71 135q-25 11 -56 11q-83 0 -116 -67q-14 -30 -14 -66q0 -67 54 -107q32 -24 72 -24q60 0 102 46q29 33 29 72zM373 290q-49 -52 -117 -59q-7 -1 -14 -1q-79 0 -128 65q-34 46 -34 103q0 91 64 138q42 32 102 32q105 0 145 -89q19 -41 19 -94v-198
q0 -85 -70 -142q-55 -45 -125 -45h-136v37h136q75 0 123 58q35 41 35 92v103z" />
    <glyph glyph-name="colon" unicode=":" 
d="M194 351q0 37 38 55q15 7 33 7q44 0 63 -34q8 -13 8 -28q0 -37 -38 -55q-15 -7 -33 -7q-43 0 -63 34q-8 13 -8 28zM194 46q0 37 38 55q15 7 33 7q45 0 64 -35q7 -13 7 -27q0 -37 -37 -55q-16 -7 -34 -7q-43 0 -63 34q-8 13 -8 28z" />
    <glyph glyph-name="semicolon" unicode=";" 
d="M194 351q0 37 38 55q15 7 33 7q44 0 63 -34q8 -13 8 -28q0 -37 -38 -55q-15 -7 -33 -7q-43 0 -63 34q-8 13 -8 28zM318 112l-120 -246h-46l82 246h84z" />
    <glyph glyph-name="less" unicode="&#x3c;" 
d="M545 440l-398 -188l398 -199v-38l-484 237l484 229v-41z" />
    <glyph glyph-name="equal" unicode="=" 
d="M118 368h311v-37h-311v37zM118 248h311v-37h-311v37z" />
    <glyph glyph-name="greater" unicode="&#x3e;" 
d="M52 440v41l484 -229l-484 -237v38l398 199z" />
    <glyph glyph-name="question" unicode="?" 
d="M227 147v58q0 45 55 92l57 48q42 41 42 86q0 62 -75 87q-32 11 -70 11q-82 0 -118 -39q-17 -18 -17 -41v-18h-37v18q0 69 82 100q40 15 89 15q100 0 151 -53q32 -33 32 -80q0 -63 -67 -121l-59 -52q-28 -28 -28 -53v-58h-37zM177 46q0 37 38 55q15 7 33 7q43 0 63 -34
q8 -13 8 -28q0 -37 -38 -55q-15 -7 -33 -7q-43 0 -63 34q-8 13 -8 28z" />
    <glyph glyph-name="at" unicode="@" 
d="M410 416q-17 81 -72 101q-25 9 -63 9q-100 0 -130 -92q-18 -55 -18 -156q0 -159 51 -208q33 -33 96 -33h108v-37h-107q-135 0 -170 130q-15 56 -15 148q0 188 71 248q43 37 114 37q136 0 170 -136q14 -57 14 -149v-104q-9 -33 -37 -36h-69q-65 0 -89 82q-9 30 -9 62
q0 75 41 112q23 22 57 22h57zM422 175v103q0 54 -6 101h-63q-39 0 -55 -51q-6 -21 -6 -46q0 -70 34 -97q13 -10 27 -10h69z" />
    <glyph glyph-name="A" unicode="A" 
d="M226 283h152l-76 238zM361 34h96l-69 212h-172l-69 -212h95v-34h-213v34h79l158 494h-144v34h207l167 -528h75v-34h-210v34z" />
    <glyph glyph-name="B" unicode="B" 
d="M207 361h176q57 0 84 42q12 19 12 41q0 49 -47 73q-22 11 -48 11h-177v-167zM207 34h176q50 0 79 53q22 39 22 97q0 76 -51 121q-25 22 -49 22h-177v-293zM444 340q58 -42 71 -121q3 -18 3 -35q0 -107 -62 -158q-32 -26 -72 -26h-303v34h89v494h-89v34h302q64 0 104 -46
q26 -31 26 -72q0 -71 -69 -104z" />
    <glyph glyph-name="C" unicode="C" 
d="M325 564q83 0 125 -44q10 -7 11 0q3 24 12 42h34q-13 -36 -13 -70q0 -18 19 -66h-35q-17 59 -84 87q-34 14 -69 14q-86 0 -146 -77q-55 -71 -55 -169q0 -116 73 -190q56 -56 128 -56q64 0 117 42q13 11 23 23l31 -21q-45 -56 -125 -75q-24 -6 -46 -6q-104 0 -174 89
q-64 82 -64 194q0 124 76 208q68 75 162 75z" />
    <glyph glyph-name="D" unicode="D" 
d="M185 34h162q64 0 116 80q50 79 50 170q0 73 -39 148q-50 96 -127 96h-162v-494zM52 34h96v494h-96v34h295q105 0 163 -121q38 -77 38 -155q0 -92 -43 -175q-57 -111 -158 -111h-295v34z" />
    <glyph glyph-name="E" unicode="E" 
d="M435 402v-143h-34v62h-194v-287h273l12 87h34l-12 -121h-440v34h97v494h-97v34h440l9 -115h-34l-9 81h-273v-173h194v47h34z" />
    <glyph glyph-name="F" unicode="F" 
d="M207 528v-173h120v47h35v-143h-34v62h-121v-287h169v-34h-303v34h97v494h-97v34h440l14 -159h-34l-13 125h-273z" />
    <glyph glyph-name="G" unicode="G" 
d="M318 564q81 0 123 -39q3 -2 5 -5q10 -8 12 0q3 28 12 42h34q-13 -36 -13 -70q0 -18 19 -66h-35q-17 58 -87 87q-35 14 -70 14q-86 0 -146 -77q-55 -71 -55 -169q0 -121 70 -193q52 -53 120 -53q94 0 145 88q30 54 33 125h-110v34h145v-34q-5 -131 -81 -200
q-54 -50 -132 -50q-106 0 -172 95q-55 79 -55 188q0 124 77 208q68 75 161 75z" />
    <glyph glyph-name="H" unicode="H" 
d="M164 367h273v161h-98v34h230v-34h-95v-494h94v-34h-230v34h99v296h-273v-296h97v-34h-230v34h96v494h-96v34h230v-34h-97v-161z" />
    <glyph glyph-name="I" unicode="I" 
d="M285 528h-195v34h421v-34h-190v-494h189v-34h-421v34h196v494z" />
    <glyph glyph-name="J" unicode="J" 
d="M153 227q0 -87 6 -113q17 -78 93 -78q69 0 91 67q7 20 7 40v385h-173v34h307v-34h-97v-385q0 -63 -41 -106q-36 -38 -94 -38q-83 0 -120 76q-16 34 -16 68v84h37z" />
    <glyph glyph-name="K" unicode="K" 
d="M314 562h209v-34h-121q-90 -136 -199 -239q94 -26 166 -125q35 -46 81 -130h118v-34h-139q-83 150 -143 203q-50 44 -116 56q-12 -10 -20 -16v-209h91v-34h-209v34h82v494h-82v34h209v-34h-91v-237q107 93 206 237h-42v34z" />
    <glyph glyph-name="L" unicode="L" 
d="M183 528h-84v34h208v-34h-87v-494h247l21 189h34l-20 -223h-404v34h85v494z" />
    <glyph glyph-name="M" unicode="M" 
d="M542 528v-494h46v-34h-188v34h105v494h-5l-188 -407h-21l-192 407h-8v-494h104v-34h-187v34h47v494h-47v34h120v-11l172 -364l171 367v8h121v-34h-50z" />
    <glyph glyph-name="N" unicode="N" 
d="M508 54v474h-105v34h188v-34h-46v-535h-37l-414 535h-2v-494h104v-34h-187v34h47v494h-47v34h107q0 -1 392 -508z" />
    <glyph glyph-name="O" unicode="O" 
d="M300 564q103 0 173 -89q65 -82 65 -194q0 -124 -77 -208q-68 -75 -161 -75q-103 0 -173 89q-65 82 -65 194q0 124 77 208q68 75 161 75zM300 527q-86 0 -146 -77q-55 -71 -55 -169q0 -116 73 -190q56 -56 128 -56q86 0 146 77q55 71 55 169q0 116 -73 190q-56 56 -128 56
z" />
    <glyph glyph-name="P" unicode="P" 
d="M186 245h200q47 0 91 39q46 42 46 102q0 86 -72 125q-32 17 -65 17h-200v-283zM53 34h96v494h-96v34h333q66 0 118 -48q53 -49 53 -128q0 -93 -82 -145q-46 -30 -89 -30h-200v-177h136v-34h-269v34z" />
    <glyph glyph-name="Q" unicode="Q" 
d="M300 527q-86 0 -146 -77q-55 -71 -55 -169q0 -116 73 -190q56 -56 128 -56q86 0 146 77q55 71 55 169q0 116 -73 190q-56 56 -128 56zM232 10l-37 -46q17 3 37 3q28 0 67 -35q29 -26 44 -26q26 0 61 30q7 7 11 10l22 -26l-40 -33q-23 -15 -53 -15q-28 0 -68 35
q-29 26 -43 26q-52 0 -125 -50q-2 -2 -4 -3l-13 9l109 135q-89 49 -123 157q-15 48 -15 100q0 124 77 208q68 75 161 75q103 0 173 -89q65 -82 65 -194q0 -124 -77 -208q-68 -75 -161 -75q-32 0 -68 12z" />
    <glyph glyph-name="R" unicode="R" 
d="M143 281h216q59 0 100 37q37 33 37 86q0 92 -87 117q-24 7 -50 7h-216v-247zM332 247q64 -58 102 -148q10 -22 26 -65h70v-34h-94q-42 110 -65 148q-33 53 -92 99h-137v-213h130v-34h-263v34h97v494h-97v34h350q83 0 132 -51q39 -41 39 -107q0 -96 -91 -138
q-40 -19 -80 -19h-27z" />
    <glyph glyph-name="S" unicode="S" 
d="M460 570q-12 -33 -12 -57q0 -49 24 -75h-32q-2 1 -3 2q-20 47 -70 75q-31 18 -63 18q-82 0 -122 -47q-20 -24 -20 -54q0 -67 75 -100q12 -5 104 -34q91 -29 118 -73q17 -28 17 -66q0 -82 -78 -125q-46 -25 -100 -25q-63 0 -114 43q-8 8 -11 -7q-6 -23 -15 -45h-34l14 42
q9 27 9 44q0 25 -20 63q-2 3 -3 5h34l13 -29q37 -64 103 -77q12 -2 24 -2q76 0 117 49q24 28 24 64q0 61 -73 92q-9 4 -101 34q-93 29 -121 75q-19 30 -19 72q0 80 84 118q44 20 95 20q52 0 101 -36q10 -8 12 1q3 22 9 35h34z" />
    <glyph glyph-name="T" unicode="T" 
d="M522 358l-10 170h-194v-494h149v-34h-333v34h148v494h-193l-10 -170h-35l10 204h491l11 -204h-34z" />
    <glyph glyph-name="U" unicode="U" 
d="M572 528h-71v-349q0 -60 -52 -118q-62 -68 -149 -68q-91 0 -155 78q-46 56 -46 108v349h-71v34h204v-34h-100v-349q0 -39 44 -89q56 -63 123 -63q78 0 133 69q35 44 35 83v349h-99v34h204v-34z" />
    <glyph glyph-name="V" unicode="V" 
d="M587 528h-50l-220 -544h-33l-221 544h-50v34h196v-34h-106l197 -489l197 489h-106v34h196v-34z" />
    <glyph glyph-name="W" unicode="W" 
d="M402 562h198v-34h-24l-142 -543h-22l-112 385l-112 -385h-22l-142 543h-24v34h198v-34h-136l116 -444l109 373h26l109 -373l116 444h-136v34z" />
    <glyph glyph-name="X" unicode="X" 
d="M506 528l-183 -247l183 -247h42v-34h-141v34h53l-160 216l-160 -216h53v-34h-141v34h42l183 247l-183 247h-35v34h141v-34h-60l160 -216l160 216h-60v34h141v-34h-35z" />
    <glyph glyph-name="Y" unicode="Y" 
d="M317 34h58v-34h-152v34h57v239l-186 255h-35v34h141v-34h-60l160 -216l160 216h-60v34h141v-34h-35l-189 -255v-239z" />
    <glyph glyph-name="Z" unicode="Z" 
d="M432 34l11 156h35l-14 -190h-339v20l287 508h-248l-7 -153h-35l9 187h331v-23l-286 -505h256z" />
    <glyph glyph-name="bracketleft" unicode="[" 
d="M226 562h124v-34h-87v-632h86v-34h-124l1 699v1z" />
    <glyph glyph-name="backslash" unicode="\" 
d="M530 -84h-42l-366 716h40z" />
    <glyph glyph-name="bracketright" unicode="]" 
d="M266 562l1 -699v-1h-124v34h86v632h-87v34h124z" />
    <glyph glyph-name="asciicircum" unicode="^" 
d="M505 357l-22 -22l-179 146l-187 -146l-22 22l206 205z" />
    <glyph glyph-name="underscore" unicode="_" 
d="M35 -72h531v-34h-531v34z" />
    <glyph glyph-name="grave" unicode="`" 
d="M191 657h93l122 -175h-47z" />
    <glyph glyph-name="a" unicode="a" 
d="M409 239q-105 27 -186 27q-75 0 -118 -51q-27 -32 -27 -72q0 -64 69 -99q42 -21 92 -21q80 0 133 48q17 15 37 39v129zM446 34h93v-34h-130v54q-62 -62 -147 -67q-11 -1 -23 -1q-89 0 -149 52q-49 43 -49 105q0 83 75 129q48 31 107 31q84 0 186 -26v17q0 43 -57 76
q-51 30 -115 30q-63 0 -160 -43l-14 34l59 23q71 23 115 23q98 0 162 -53q47 -39 47 -90v-260z" />
    <glyph glyph-name="b" unicode="b" 
d="M344 390q-86 0 -143 -62q-45 -49 -45 -115q0 -86 71 -139q52 -38 116 -38q90 0 147 66q41 49 41 111q0 83 -68 136q-51 41 -119 41zM119 591l-78 -15l-6 34l121 22v-301q55 78 151 93q18 3 36 3q103 0 170 -74q55 -60 55 -140q0 -97 -76 -161q-63 -53 -148 -53
q-102 0 -169 73q-10 11 -18 23v-95h-118v34h80v557z" />
    <glyph glyph-name="c" unicode="c" 
d="M454 377l5 22l33 -7l-12 -56q9 -13 19 -36l-35 -12q-35 70 -113 94q-28 8 -57 8q-90 0 -147 -66q-41 -49 -41 -111q0 -81 69 -134q56 -42 128 -42q56 0 122 36q14 7 24 15l20 -33q-50 -41 -134 -53q-17 -2 -32 -2q-111 0 -180 75q-54 59 -54 138q0 96 76 160
q64 54 149 54q79 0 146 -52q12 -8 14 2z" />
    <glyph glyph-name="d" unicode="d" 
d="M582 0h-117v95q-55 -78 -151 -93q-18 -3 -36 -3q-103 0 -170 74q-55 60 -55 140q0 97 76 161q63 53 148 53q102 0 169 -73q10 -11 18 -23v258l-160 -30v34l197 39v-598h81v-34zM465 213q0 86 -71 139q-52 38 -116 38q-90 0 -147 -66q-41 -49 -41 -111q0 -83 68 -136
q51 -41 119 -41q86 0 143 62q45 49 45 115z" />
    <glyph glyph-name="e" unicode="e" 
d="M478 247q-16 77 -87 118q-45 25 -97 25q-90 0 -146 -66q-29 -34 -38 -77h368zM519 213h-413q0 -81 69 -134q54 -42 124 -42q80 0 154 48q5 4 10 7l24 -28q-62 -52 -157 -62q-16 -2 -31 -2q-101 0 -171 71q-59 61 -59 142q0 96 76 160q64 54 149 54q103 0 170 -72
q55 -60 55 -142z" />
    <glyph glyph-name="f" unicode="f" 
d="M185 34v358h-73v34h72v79q0 61 65 101q42 26 85 26q80 0 148 -49l-22 -30q-57 42 -126 42q-53 0 -90 -41q-23 -24 -23 -49v-79h250v-34h-250v-358h167v-34h-276v34h73z" />
    <glyph glyph-name="g" unicode="g" 
d="M269 390q-90 0 -147 -66q-41 -49 -41 -111q0 -83 68 -136q51 -41 119 -41q90 0 147 66q41 49 41 111q0 83 -68 136q-51 41 -119 41zM575 426v-34h-82v-423q0 -63 -75 -116q-72 -50 -152 -50q-94 0 -193 58l16 33q46 -32 126 -48q28 -6 50 -6q68 0 135 48q56 41 56 81v127
q-52 -75 -143 -93q-22 -4 -44 -4q-103 0 -170 74q-55 60 -55 140q0 97 76 161q63 53 148 53q102 0 170 -74q10 -11 18 -23v96h119z" />
    <glyph glyph-name="h" unicode="h" 
d="M146 376q77 42 102 51q38 13 73 13q74 0 129 -57q41 -42 41 -87v-261h85v-35h-208v35h87v261q0 35 -45 72q-43 35 -89 35q-66 0 -171 -68q-3 -1 -5 -3v-297h85v-35h-208v35h87v555l-87 -22v34l124 30v-256z" />
    <glyph glyph-name="i" unicode="i" 
d="M344 584v-97h-74v97h74zM289 392h-186v34h223v-392h173v-34h-396v34h186v358z" />
    <glyph glyph-name="j" unicode="j" 
d="M76 -134q33 -23 98 -26h11q49 0 83 56q22 37 22 73v423h-131v34h168v-457q0 -62 -43 -115q-42 -51 -99 -51q-81 0 -125 30zM345 583v-97h-74v97h74z" />
    <glyph glyph-name="k" unicode="k" 
d="M350 34h35l-161 198l-32 -27v-205h-137v34h100v551l-100 -36v34l137 49v-378l165 138h-33v34h170v-34h-80l-162 -136l181 -222h94v-34h-177v34z" />
    <glyph glyph-name="l" unicode="l" 
d="M255 589l-163 -40v34l200 49v-598h216v-34h-416v34h163v555z" />
    <glyph glyph-name="m" unicode="m" 
d="M313 373q35 44 88 63q11 4 18 4q80 0 93 -85q3 -21 3 -59v-261h85v-35h-123v296q0 62 -11 82q-13 25 -46 25q-38 0 -101 -70v-298h85v-35h-122v296q0 107 -58 107q-39 0 -96 -66l-5 -5v-297h85v-35h-208v35h87v357h-87v34h123v-50q16 30 70 55q20 9 31 9q71 0 89 -67z
" />
    <glyph glyph-name="n" unicode="n" 
d="M145 376q33 18 39 21q80 43 137 43q68 0 125 -55q45 -44 45 -89v-262h85v-34h-208v34h87v262q0 35 -45 72q-43 35 -89 35q-66 0 -171 -68q-3 -1 -5 -3v-298h85v-34h-208v34h87v358h-87v34h124q-3 -14 -1 -50z" />
    <glyph glyph-name="o" unicode="o" 
d="M300 427q101 0 169 -72q56 -61 56 -142q0 -96 -76 -160q-64 -54 -149 -54q-101 0 -169 72q-56 61 -56 142q0 96 76 160q64 54 149 54zM300 390q-88 0 -145 -65q-43 -49 -43 -112q0 -83 67 -136q52 -41 121 -41q95 0 149 67q39 47 39 110q0 89 -73 141q-50 36 -115 36z
" />
    <glyph glyph-name="p" unicode="p" 
d="M343 36q88 0 145 65q43 49 43 112q0 83 -68 136q-51 41 -119 41q-87 0 -144 -63q-44 -48 -44 -114q0 -89 72 -141q50 -36 115 -36zM119 -146q0 2 1 538h-81v34h117v-95q55 78 151 93q18 3 36 3q103 0 170 -74q55 -60 55 -140q0 -97 -76 -161q-63 -53 -148 -53
q-103 0 -171 75q-9 10 -17 21v-241h123v-34h-239v34h79z" />
    <glyph glyph-name="q" unicode="q" 
d="M257 36q92 0 147 65q40 48 40 112q0 87 -72 139q-51 38 -116 38q-89 0 -145 -66q-42 -48 -42 -111q0 -82 68 -136q52 -41 120 -41zM481 -146h79v-34h-239v34h123v241q-56 -79 -153 -93q-17 -3 -35 -3q-102 0 -169 73q-55 60 -55 141q0 97 77 161q63 53 148 53
q101 0 169 -74q10 -10 18 -22v95h117v-34h-81q0 -404 1 -538z" />
    <glyph glyph-name="r" unicode="r" 
d="M462 363q-13 15 -60 32q-24 8 -40 8q-64 0 -164 -59q-10 -6 -19 -12v-297h85v-35h-209v35h87v357h-87v34h124v-50q36 19 39 21q75 42 143 43q64 0 119 -42q7 -5 13 -11z" />
    <glyph glyph-name="s" unicode="s" 
d="M460 432q-12 -24 -12 -49q0 -40 24 -62h-34q-21 39 -73 61q-31 13 -61 13q-104 0 -134 -43q-8 -12 -8 -27q0 -51 74 -76l146 -37q87 -28 93 -89q1 -5 1 -11q0 -64 -78 -98q-46 -19 -100 -19q-63 0 -114 33q-8 6 -11 -5q-4 -13 -15 -35h-34l14 33q9 20 9 39t-19 50
q-2 4 -4 6h34l13 -22q39 -55 113 -61q7 -1 14 -1q94 0 128 44q13 16 13 36q0 46 -69 69l-145 35q-91 29 -99 94q-1 7 -1 15q0 62 84 92q44 15 95 15q50 0 101 -27q10 -7 12 0q3 18 9 27h34z" />
    <glyph glyph-name="t" unicode="t" 
d="M53 426h78v132h37v-132h252v-34h-252v-251q0 -53 54 -92q43 -31 94 -31q72 0 187 115l28 -24q-75 -83 -155 -115q-33 -13 -60 -13q-78 0 -136 56q-48 46 -48 104v251h-79v34z" />
    <glyph glyph-name="u" unicode="u" 
d="M453 51q-33 -18 -39 -21q-80 -43 -137 -43q-68 0 -125 55q-45 44 -45 89v261h-85v34h122l-1 -294v-1q0 -35 45 -72q43 -35 89 -35q66 0 171 68q3 1 5 3v297h-85v34h122v-391h86v-35h-123v51z" />
    <glyph glyph-name="v" unicode="v" 
d="M590 392h-76l-200 -405h-28l-200 405h-76v34h191v-34h-74l173 -350l173 350h-74v34h191v-34z" />
    <glyph glyph-name="w" unicode="w" 
d="M76 392l106 -336l104 269h28l104 -269l106 336h-125v34h201v-34h-37l-130 -416h-24l-109 282l-109 -282h-24l-130 416h-37v34h201v-34h-125z" />
    <glyph glyph-name="x" unicode="x" 
d="M172 0h-159v34h57l202 178l-205 180h-54v34h159v-34h-49l177 -155l177 155h-49v34h159v-34h-54l-205 -180l202 -178h57v-34h-159v34h46l-174 153l-174 -153h46v-34z" />
    <glyph glyph-name="y" unicode="y" 
d="M284 -168h-284v34h213l66 134l-193 392h-76v34h191v-34h-74l173 -350l173 350h-74v34h191v-34h-76l-260 -526h30v-34z" />
    <glyph glyph-name="z" unicode="z" 
d="M499 392l-348 -358h332v36h34v-70h-418v34l348 358h-330v-36h-34v70h416v-34z" />
    <glyph glyph-name="braceleft" unicode="{" 
d="M207 245q42 -37 47 -90v-136q0 -74 61 -95q19 -6 41 -6h20v-38h-20q-84 0 -120 66q-18 32 -18 73v136q0 37 -31 58q-18 13 -41 13v37q47 0 65 44q6 14 6 28v136q0 83 63 120q33 19 76 19h20v-37h-20q-74 0 -95 -62q-6 -18 -6 -40v-136q0 -46 -36 -80q-6 -6 -12 -10z" />
    <glyph glyph-name="bar" unicode="|" 
d="M319 562v-705h-38v705h38z" />
    <glyph glyph-name="braceright" unicode="}" 
d="M320 245q-42 37 -47 90v136q0 73 -60 95q-19 7 -42 7h-20v37h20q86 0 122 -67q17 -31 17 -72v-136q0 -38 31 -60q17 -12 40 -12v-37q-47 0 -65 -44q-6 -14 -6 -27v-136q0 -84 -64 -121q-33 -18 -75 -18h-20v38h20q75 0 96 61q6 18 6 40v136q0 49 37 82z" />
    <glyph glyph-name="asciitilde" unicode="~" 
d="M39 252q54 49 89 61q22 7 47 7q58 0 121 -47q54 -41 71 -49q28 -14 58 -14q47 0 101 48q4 4 13 12l22 -26q-58 -50 -94 -62q-20 -6 -42 -6q-59 0 -122 48q-55 41 -72 49q-27 13 -56 13q-47 0 -96 -44q-4 -4 -18 -16z" />
    <glyph glyph-name="uni00A0" unicode="&#xa0;" 
 />
    <glyph glyph-name="exclamdown" unicode="&#xa1;" 
d="M238 -18l10 454h37l10 -454h-57zM332 554q0 -34 -35 -50q-14 -6 -29 -6q-41 0 -59 32q-6 11 -6 24q0 35 36 50q13 6 29 6q40 0 58 -32q6 -11 6 -24z" />
    <glyph glyph-name="cent" unicode="&#xa2;" 
d="M405 432l5 23l33 -7l-12 -56q9 -13 19 -36l-35 -12q-35 69 -113 93q-28 8 -57 8q-90 0 -147 -66q-41 -48 -41 -110q0 -81 69 -135q56 -42 128 -42q56 0 124 37q13 7 22 14l20 -33q-50 -41 -134 -52q-12 -2 -24 -2v-118h-34v119q-105 10 -165 87q-43 55 -43 124
q0 97 77 161q57 47 131 52v137h34v-137q70 -4 129 -50q13 -10 14 1z" />
    <glyph glyph-name="sterling" unicode="&#xa3;" 
d="M80 330h69q-22 46 -22 88q0 99 90 152q56 34 125 34q73 0 134 -50q16 -13 41 -37l-24 -24q-59 57 -98 69q-23 8 -53 8q-89 0 -143 -56q-38 -40 -38 -96q0 -40 26 -88h222v-34h-204q23 -50 23 -91q0 -73 -44 -150q25 7 56 7q34 0 79 -31q38 -27 61 -27q51 0 83 33
q6 6 12 13l26 -22q-43 -53 -105 -57q-8 -1 -16 -1q-34 0 -79 31q-38 27 -61 27q-67 0 -102 -35l-5 -5v0l-24 24v0l5 5q51 53 72 129q8 31 8 59q0 39 -27 91h-87v34z" />
    <glyph glyph-name="currency" unicode="&#xa4;" 
d="M300 447q78 0 137 -51l63 63l24 -25l-63 -62q50 -58 50 -135q0 -78 -52 -138l60 -59l-24 -25l-60 60q-57 -49 -135 -49q-76 0 -136 50l-59 -60l-24 23l59 61q-51 59 -51 136q0 76 50 136l-63 62l24 25l63 -63q57 51 137 51zM300 410q-83 0 -135 -65q-39 -47 -39 -108
q0 -83 65 -135q47 -39 109 -39q83 0 135 65q39 47 39 108q0 83 -65 135q-47 39 -109 39z" />
    <glyph glyph-name="yen" unicode="&#xa5;" 
d="M317 34h58v-34h-152v34h57v138h-177v34h177v67l-22 30h-155v34h130l-139 191h-35v34h141v-34h-60l142 -191h36l142 191h-60v34h141v-34h-35l-142 -191h132v-34h-157l-22 -30v-67h179v-34h-179v-138z" />
    <glyph glyph-name="brokenbar" unicode="&#xa6;" 
d="M319 167v-310h-38v310h38zM281 321v241h38v-241h-38z" />
    <glyph glyph-name="section" unicode="&#xa7;" 
d="M220 371l-2 -2q-60 -46 -60 -82q0 -52 108 -120q-30 19 24 -15l57 -38l2 2q60 46 60 82q0 50 -103 118l-29 18q-55 35 -57 37zM170 10v-68h186q40 0 46 27q1 6 1 15q0 49 -80 105l-118 79q-81 60 -81 119q0 50 69 106q-63 52 -63 109q0 76 81 76h231v-102h-34v68h-197
q-40 0 -46 -27q-1 -6 -1 -15q0 -49 81 -106l117 -78q81 -61 81 -120q0 -49 -64 -102q-2 -2 -4 -3q62 -55 62 -109q0 -76 -81 -76h-220v102h34z" />
    <glyph glyph-name="dieresis" unicode="&#xa8;" 
d="M129 520q0 27 25 36q6 2 13 2q27 0 36 -25q2 -6 2 -13q0 -27 -25 -36q-6 -2 -13 -2q-27 0 -36 25q-2 6 -2 13zM286 520q0 27 25 36q6 2 13 2q27 0 36 -25q2 -6 2 -13q0 -27 -25 -36q-6 -2 -13 -2q-27 0 -36 25q-2 6 -2 13z" />
    <glyph glyph-name="copyright" unicode="&#xa9;" 
d="M300 554q120 0 204 -86q80 -83 80 -197q0 -120 -86 -204q-83 -80 -198 -80q-120 0 -204 86q-80 83 -80 197q0 120 86 204q83 80 198 80zM300 520q-110 0 -184 -81q-66 -71 -66 -168q0 -110 81 -184q72 -66 169 -66q110 0 184 81q66 71 66 168q0 110 -81 184
q-72 66 -169 66zM410 155q-44 -49 -108 -49q-75 0 -120 62q-32 44 -32 98q0 78 58 126q41 34 93 34q70 0 114 -55l-26 -21q-36 42 -87 42q-61 0 -96 -53q-22 -32 -22 -73q0 -67 51 -104q30 -22 66 -22q51 0 84 38z" />
    <glyph glyph-name="ordfeminine" unicode="&#xaa;" 
d="M449 162h-288v34h288v-34zM374 432q-61 16 -112 16q-52 0 -76 -39q-10 -16 -10 -35q0 -42 49 -62q22 -9 47 -9q53 0 88 36q7 6 14 15v78zM396 309h56v-21h-78v33q-39 -41 -102 -41q-62 0 -97 39q-22 24 -22 55q0 56 54 83q26 13 55 13q47 0 112 -15v10q0 29 -41 49
q-28 14 -62 14q-37 0 -96 -25l-9 20l36 14q43 13 69 13q67 0 105 -39q20 -21 20 -46v-156z" />
    <glyph glyph-name="guillemotleft" unicode="&#xab;" 
d="M330 422l-214 -182l214 -181l-29 -32l-288 213l288 213zM521 422l-214 -182l214 -181l-29 -32l-288 213l288 213z" />
    <glyph glyph-name="logicalnot" unicode="&#xac;" 
d="M71 347h368v-171h-37v133h-331v38z" />
    <glyph glyph-name="uni00AD" unicode="&#xad;" 
d="M118 290h311v-37h-311v37z" />
    <glyph glyph-name="registered" unicode="&#xae;" 
d="M257 300h78q27 0 32 33q1 5 1 11q0 38 -24 49q-6 3 -12 3h-75v-96zM332 266l66 -122h-37l-68 122h-36v-125h-34v289h109q46 0 63 -48q7 -17 7 -36q0 -54 -37 -73q-13 -7 -30 -7h-3zM300 554q120 0 204 -86q80 -83 80 -197q0 -120 -86 -204q-83 -80 -198 -80
q-120 0 -204 86q-80 83 -80 197q0 120 86 204q83 80 198 80zM300 520q-110 0 -184 -81q-66 -71 -66 -168q0 -110 81 -184q72 -66 169 -66q110 0 184 81q66 71 66 168q0 110 -81 184q-72 66 -169 66z" />
    <glyph glyph-name="macron" unicode="&#xaf;" 
d="M71 562h347v-34h-347v34z" />
    <glyph glyph-name="degree" unicode="&#xb0;" 
d="M412 613q66 0 104 -54q24 -33 24 -73q0 -66 -54 -104q-33 -24 -74 -24q-66 0 -104 54q-24 33 -24 73q0 66 54 104q33 24 74 24zM412 579q-52 0 -80 -44q-14 -23 -14 -49q0 -52 44 -80q23 -14 50 -14q52 0 80 44q14 23 14 49q0 52 -44 80q-23 14 -50 14z" />
    <glyph glyph-name="plusminus" unicode="&#xb1;" 
d="M284 417v-99h177v-37h-176v-88h-37v88h-171v37h170v99h37zM77 124h385v-37h-385v37z" />
    <glyph glyph-name="twosuperior" unicode="&#xb2;" 
d="M196 507v28q26 92 111 92q60 0 86 -40q11 -17 11 -40q0 -54 -56 -94q-1 0 -43 -27l-49 -32q-30 -23 -30 -56v-28h157v53h21v-73h-200v48q0 49 61 90l74 46q10 8 17 15q26 24 26 58q0 39 -45 53q-15 5 -33 5q-71 0 -84 -71q-2 -13 -2 -27h-22z" />
    <glyph glyph-name="threesuperior" unicode="&#xb3;" 
d="M367 477q43 -26 43 -87q0 -56 -55 -85q-28 -14 -61 -14q-49 0 -88 42q-2 3 -14 16l16 15q32 -34 47 -42q17 -9 39 -9q54 0 81 38q13 17 13 39q0 47 -32 69q-12 9 -25 9h-39v22h39q38 0 52 31q5 10 5 21q0 48 -57 61q-15 3 -32 3q-55 0 -91 -53l-18 13q43 63 109 63
q76 0 102 -49q9 -17 9 -38q0 -44 -43 -65z" />
    <glyph glyph-name="acute" unicode="&#xb4;" 
d="M403 657l-169 -175h-46l122 175h93z" />
    <glyph glyph-name="mu" unicode="&#xb5;" 
d="M28 426h121v-312q6 -64 69 -84q24 -8 53 -8q76 0 153 83q4 6 9 11v276h-85v34h122v-392h85v-34h-122v66q-69 -73 -149 -80q-7 -1 -14 -1q-79 0 -120 44v-221h-38v584h-84v34z" />
    <glyph glyph-name="paragraph" unicode="&#xb6;" 
d="M339 262v266h-67q-83 0 -136 -44q-42 -36 -42 -89q0 -94 102 -123q33 -10 70 -10h73zM376 528v-587h-165v34h128v253h-73q-96 0 -154 49q-52 43 -52 118q0 102 108 146q50 21 104 21h275v-34h-38v-553h65v-34h-101v587h-97z" />
    <glyph glyph-name="periodcentered" unicode="&#xb7;" 
d="M232 248q0 37 38 55q15 7 33 7q43 0 63 -34q8 -13 8 -28q0 -37 -38 -55q-15 -7 -33 -7q-43 0 -63 34q-8 13 -8 28z" />
    <glyph glyph-name="cedilla" unicode="&#xb8;" 
d="M334 26l-10 -54q62 13 98 -29q18 -22 18 -49q0 -51 -58 -75q-44 -18 -114 -11l5 34q92 -12 123 28q7 9 7 18q0 52 -60 53q-15 0 -33 -4l-25 -6l12 94z" />
    <glyph glyph-name="onesuperior" unicode="&#xb9;" 
d="M196 311h95v291l-86 -61l-12 14l105 74h14v-318h95v-18h-95h-21h-95v18z" />
    <glyph glyph-name="ordmasculine" unicode="&#xba;" 
d="M449 162h-288v34h288v-34zM298 548q68 0 108 -53q26 -34 26 -75q0 -65 -56 -104q-35 -24 -78 -24q-69 0 -110 53q-25 34 -25 75q0 65 56 103q35 25 79 25zM298 526q-62 0 -95 -49q-18 -26 -18 -57q0 -56 49 -87q29 -19 64 -19q60 0 94 48q18 27 18 58q0 56 -49 88
q-29 18 -63 18z" />
    <glyph glyph-name="guillemotright" unicode="&#xbb;" 
d="M265 422l29 31l288 -213l-288 -213l-29 32l214 181zM73 422l29 31l288 -213l-288 -213l-29 32l214 181z" />
    <glyph glyph-name="onequarter" unicode="&#xbc;" 
d="M197 5l207 627l32 -10l-207 -627zM501 331l-164 -199h164v199zM525 132h55v-25h-55v-84h60v-23h-144v23h60v84h-200v20l206 250h18v-245zM30 309h95v290l-86 -61l-12 15l104 73h14v-317h95v-19h-95h-20h-95v19z" />
    <glyph glyph-name="onehalf" unicode="&#xbd;" 
d="M197 5l207 627l32 -9l-207 -628zM30 309h95v290l-86 -61l-12 15l104 73h14v-317h95v-19h-95h-20h-95v19zM374 216v28q26 92 110 92q61 0 87 -40q11 -17 11 -40q0 -54 -56 -94q-1 0 -43 -27l-50 -32q-29 -22 -29 -55v-28h157v53h21v-73h-200v48q0 49 61 89l73 46
q10 7 18 15q26 24 26 58q0 40 -45 53q-16 5 -34 5q-70 0 -83 -71q-2 -13 -2 -27h-22z" />
    <glyph glyph-name="threequarters" unicode="&#xbe;" 
d="M194 5l207 627l32 -9l-207 -628zM501 331l-164 -199h164v199zM525 132h55v-25h-55v-84h60v-23h-144v23h60v84h-200v20l206 250h18v-245zM207 477q43 -26 43 -87q0 -56 -55 -85q-28 -14 -61 -14q-49 0 -88 42q-2 3 -14 16l16 15q32 -34 47 -42q17 -9 39 -9q54 0 80 37
q13 18 13 40q0 47 -31 69q-12 9 -25 9h-40v22h40q38 0 52 31q5 10 5 21q0 47 -54 60q-16 4 -35 4q-55 0 -91 -53l-19 13q46 63 110 63q76 0 102 -49q9 -17 9 -38q0 -44 -43 -65z" />
    <glyph glyph-name="questiondown" unicode="&#xbf;" 
d="M255 403v-58q0 -45 -55 -92l-57 -48q-42 -41 -42 -86q0 -61 72 -86q33 -12 72 -12q83 0 120 40q16 17 16 40v18h37v-18q0 -69 -80 -101q-41 -16 -92 -16q-96 0 -148 53q-34 34 -34 82q0 63 67 121l59 52q28 28 28 53v58h37zM305 504q0 -37 -38 -55q-15 -7 -33 -7
q-43 0 -63 34q-8 13 -8 28q0 37 38 55q15 7 33 7q43 0 63 -34q8 -13 8 -28z" />
    <glyph glyph-name="Agrave" unicode="&#xc0;" 
d="M109 799h93l122 -175h-47zM226 283h152l-76 238zM361 34h96l-69 212h-172l-69 -212h95v-34h-213v34h79l158 494h-144v34h207l167 -528h75v-34h-210v34z" />
    <glyph glyph-name="Aacute" unicode="&#xc1;" 
d="M498 799l-169 -175h-46l122 175h93zM226 283h152l-76 238zM361 34h96l-69 212h-172l-69 -212h95v-34h-213v34h79l158 494h-144v34h207l167 -528h75v-34h-210v34z" />
    <glyph glyph-name="Acircumflex" unicode="&#xc2;" 
d="M431 638l-14 -14l-115 93l-119 -93l-14 14l121 121h21zM226 283h152l-76 238zM361 34h96l-69 212h-172l-69 -212h95v-34h-213v34h79l158 494h-144v34h207l167 -528h75v-34h-210v34z" />
    <glyph glyph-name="Atilde" unicode="&#xc3;" 
d="M205 624q1 43 39 67q18 11 36 11q15 1 44 -22q16 -13 25 -12q34 3 54 30h5q3 -40 -25 -63q-14 -11 -32 -11q-23 1 -48 22q-15 13 -26 13q-40 -1 -62 -35h-10zM226 283h152l-76 238zM361 34h96l-69 212h-172l-69 -212h95v-34h-213v34h79l158 494h-144v34h207l167 -528h75
v-34h-210v34z" />
    <glyph glyph-name="Adieresis" unicode="&#xc4;" 
d="M184 662q0 27 25 36q6 2 13 2q27 0 36 -25q2 -6 2 -13q0 -27 -25 -36q-6 -2 -13 -2q-27 0 -36 25q-2 6 -2 13zM341 662q0 27 25 36q6 2 13 2q27 0 36 -25q2 -6 2 -13q0 -27 -25 -36q-6 -2 -13 -2q-27 0 -36 25q-2 6 -2 13zM226 283h152l-76 238zM361 34h96l-69 212h-172
l-69 -212h95v-34h-213v34h79l158 494h-144v34h207l167 -528h75v-34h-210v34z" />
    <glyph glyph-name="Aring" unicode="&#xc5;" 
d="M300 786q50 0 77 -43q14 -22 14 -48q0 -50 -43 -77q-22 -14 -48 -14q-50 0 -77 43q-14 22 -14 48q0 50 43 77q22 14 48 14zM300 752q-34 0 -51 -31q-6 -12 -6 -26q0 -34 31 -51q12 -6 26 -6q34 0 51 31q6 12 6 26q0 34 -31 51q-12 6 -26 6zM226 283h152l-76 238zM361 34
h96l-69 212h-172l-69 -212h95v-34h-213v34h79l158 494h-144v34h207l167 -528h75v-34h-210v34z" />
    <glyph glyph-name="AE" unicode="&#xc6;" 
d="M312 283v238l-83 -238h83zM486 402v-143h-34v62h-103v-287h182l12 87h34l-12 -121h-253v246h-96l-74 -212h95v-34h-213v34h79l173 494h-159v34h448l9 -115h-34l-9 81h-182v-173h103v47h34z" />
    <glyph glyph-name="Ccedilla" unicode="&#xc7;" 
d="M343 5l-10 -54q62 13 98 -29q18 -22 18 -49q0 -51 -58 -75q-44 -18 -114 -11l5 34q92 -12 123 28q7 9 7 18q0 52 -60 53q-15 0 -33 -4l-25 -6l12 94zM325 564q83 0 125 -44q10 -7 11 0q3 24 12 42h34q-13 -36 -13 -70q0 -18 19 -66h-35q-17 59 -84 87q-34 14 -69 14
q-86 0 -146 -77q-55 -71 -55 -169q0 -116 73 -190q56 -56 128 -56q64 0 117 42q13 11 23 23l31 -21q-45 -56 -125 -75q-24 -6 -46 -6q-104 0 -174 89q-64 82 -64 194q0 124 76 208q68 75 162 75z" />
    <glyph glyph-name="Egrave" unicode="&#xc8;" 
d="M102 799h93l122 -175h-47zM435 402v-143h-34v62h-194v-287h273l12 87h34l-12 -121h-440v34h97v494h-97v34h440l9 -115h-34l-9 81h-273v-173h194v47h34z" />
    <glyph glyph-name="Eacute" unicode="&#xc9;" 
d="M486 799l-169 -175h-46l122 175h93zM435 402v-143h-34v62h-194v-287h273l12 87h34l-12 -121h-440v34h97v494h-97v34h440l9 -115h-34l-9 81h-273v-173h194v47h34z" />
    <glyph glyph-name="Ecircumflex" unicode="&#xca;" 
d="M425 638l-14 -14l-115 93l-119 -93l-14 14l121 121h21zM435 402v-143h-34v62h-194v-287h273l12 87h34l-12 -121h-440v34h97v494h-97v34h440l9 -115h-34l-9 81h-273v-173h194v47h34z" />
    <glyph glyph-name="Edieresis" unicode="&#xcb;" 
d="M177 662q0 27 25 36q6 2 13 2q27 0 36 -25q2 -6 2 -13q0 -27 -25 -36q-6 -2 -13 -2q-27 0 -36 25q-2 6 -2 13zM334 662q0 27 25 36q6 2 13 2q27 0 36 -25q2 -6 2 -13q0 -27 -25 -36q-6 -2 -13 -2q-27 0 -36 25q-2 6 -2 13zM435 402v-143h-34v62h-194v-287h273l12 87h34
l-12 -121h-440v34h97v494h-97v34h440l9 -115h-34l-9 81h-273v-173h194v47h34z" />
    <glyph glyph-name="Igrave" unicode="&#xcc;" 
d="M109 799h93l122 -175h-47zM285 528h-195v34h421v-34h-190v-494h189v-34h-421v34h196v494z" />
    <glyph glyph-name="Iacute" unicode="&#xcd;" 
d="M492 799l-169 -175h-46l122 175h93zM285 528h-195v34h421v-34h-190v-494h189v-34h-421v34h196v494z" />
    <glyph glyph-name="Icircumflex" unicode="&#xce;" 
d="M431 638l-14 -14l-115 93l-119 -93l-14 14l121 121h21zM285 528h-195v34h421v-34h-190v-494h189v-34h-421v34h196v494z" />
    <glyph glyph-name="Idieresis" unicode="&#xcf;" 
d="M184 662q0 27 25 36q6 2 13 2q27 0 36 -25q2 -6 2 -13q0 -27 -25 -36q-6 -2 -13 -2q-27 0 -36 25q-2 6 -2 13zM341 662q0 27 25 36q6 2 13 2q27 0 36 -25q2 -6 2 -13q0 -27 -25 -36q-6 -2 -13 -2q-27 0 -36 25q-2 6 -2 13zM285 528h-195v34h421v-34h-190v-494h189v-34
h-421v34h196v494z" />
    <glyph glyph-name="Eth" unicode="&#xd0;" 
d="M185 34h162q64 0 116 80q50 79 50 170q0 73 -39 148q-50 96 -127 96h-162v-212h69v-34h-69v-248zM52 34h96v248h-66v34h66v212h-96v34h295q105 0 163 -121q38 -77 38 -155q0 -92 -43 -175q-57 -111 -158 -111h-295v34z" />
    <glyph glyph-name="Ntilde" unicode="&#xd1;" 
d="M198 624q1 43 39 67q18 11 36 11q15 1 44 -22q16 -13 25 -12q34 3 54 30h5q3 -40 -25 -63q-14 -11 -32 -11q-23 1 -48 22q-15 13 -26 13q-40 -1 -62 -35h-10zM508 54v474h-105v34h188v-34h-46v-535h-37l-414 535h-2v-494h104v-34h-187v34h47v494h-47v34h107
q0 -1 392 -508z" />
    <glyph glyph-name="Ograve" unicode="&#xd2;" 
d="M108 799h93l122 -175h-47zM300 564q103 0 173 -89q65 -82 65 -194q0 -124 -77 -208q-68 -75 -161 -75q-103 0 -173 89q-65 82 -65 194q0 124 77 208q68 75 161 75zM300 527q-86 0 -146 -77q-55 -71 -55 -169q0 -116 73 -190q56 -56 128 -56q86 0 146 77q55 71 55 169
q0 116 -73 190q-56 56 -128 56z" />
    <glyph glyph-name="Oacute" unicode="&#xd3;" 
d="M492 799l-169 -175h-46l122 175h93zM300 564q103 0 173 -89q65 -82 65 -194q0 -124 -77 -208q-68 -75 -161 -75q-103 0 -173 89q-65 82 -65 194q0 124 77 208q68 75 161 75zM300 527q-86 0 -146 -77q-55 -71 -55 -169q0 -116 73 -190q56 -56 128 -56q86 0 146 77
q55 71 55 169q0 116 -73 190q-56 56 -128 56z" />
    <glyph glyph-name="Ocircumflex" unicode="&#xd4;" 
d="M431 638l-14 -14l-115 93l-119 -93l-14 14l121 121h21zM300 564q103 0 173 -89q65 -82 65 -194q0 -124 -77 -208q-68 -75 -161 -75q-103 0 -173 89q-65 82 -65 194q0 124 77 208q68 75 161 75zM300 527q-86 0 -146 -77q-55 -71 -55 -169q0 -116 73 -190q56 -56 128 -56
q86 0 146 77q55 71 55 169q0 116 -73 190q-56 56 -128 56z" />
    <glyph glyph-name="Otilde" unicode="&#xd5;" 
d="M198 624q1 43 39 67q18 11 36 11q15 1 44 -22q16 -13 25 -12q34 3 54 30h5q3 -40 -25 -63q-14 -11 -32 -11q-23 1 -48 22q-15 13 -26 13q-40 -1 -62 -35h-10zM300 564q103 0 173 -89q65 -82 65 -194q0 -124 -77 -208q-68 -75 -161 -75q-103 0 -173 89q-65 82 -65 194
q0 124 77 208q68 75 161 75zM300 527q-86 0 -146 -77q-55 -71 -55 -169q0 -116 73 -190q56 -56 128 -56q86 0 146 77q55 71 55 169q0 116 -73 190q-56 56 -128 56z" />
    <glyph glyph-name="Odieresis" unicode="&#xd6;" 
d="M183 662q0 27 25 36q6 2 13 2q27 0 36 -25q2 -6 2 -13q0 -27 -25 -36q-6 -2 -13 -2q-27 0 -36 25q-2 6 -2 13zM340 662q0 27 25 36q6 2 13 2q27 0 36 -25q2 -6 2 -13q0 -27 -25 -36q-6 -2 -13 -2q-27 0 -36 25q-2 6 -2 13zM300 564q103 0 173 -89q65 -82 65 -194
q0 -124 -77 -208q-68 -75 -161 -75q-103 0 -173 89q-65 82 -65 194q0 124 77 208q68 75 161 75zM300 527q-86 0 -146 -77q-55 -71 -55 -169q0 -116 73 -190q56 -56 128 -56q86 0 146 77q55 71 55 169q0 116 -73 190q-56 56 -128 56z" />
    <glyph glyph-name="multiply" unicode="&#xd7;" 
d="M412 357l-88 -88l88 -88l-24 -24l-88 88l-88 -88l-24 24l88 88l-88 88l24 24l88 -88l88 88z" />
    <glyph glyph-name="Oslash" unicode="&#xd8;" 
d="M300 564q76 0 137 -52l56 82l28 -20l-59 -85q76 -86 76 -208q0 -124 -76 -208q-68 -75 -162 -75q-78 0 -141 55l-56 -81l-28 20l60 86q-73 84 -73 203q0 124 76 208q68 75 162 75zM180 84q54 -49 120 -49q86 0 146 77q55 71 55 169q0 103 -61 176zM300 527
q-86 0 -146 -77q-55 -71 -55 -169q0 -101 58 -172l258 373q-53 45 -115 45z" />
    <glyph glyph-name="Ugrave" unicode="&#xd9;" 
d="M108 799h93l122 -175h-47zM572 528h-71v-349q0 -60 -52 -118q-62 -68 -149 -68q-91 0 -155 78q-46 56 -46 108v349h-71v34h204v-34h-100v-349q0 -39 44 -89q56 -63 123 -63q78 0 133 69q35 44 35 83v349h-99v34h204v-34z" />
    <glyph glyph-name="Uacute" unicode="&#xda;" 
d="M492 799l-169 -175h-46l122 175h93zM572 528h-71v-349q0 -60 -52 -118q-62 -68 -149 -68q-91 0 -155 78q-46 56 -46 108v349h-71v34h204v-34h-100v-349q0 -39 44 -89q56 -63 123 -63q78 0 133 69q35 44 35 83v349h-99v34h204v-34z" />
    <glyph glyph-name="Ucircumflex" unicode="&#xdb;" 
d="M431 638l-14 -14l-115 93l-119 -93l-14 14l121 121h21zM572 528h-71v-349q0 -60 -52 -118q-62 -68 -149 -68q-91 0 -155 78q-46 56 -46 108v349h-71v34h204v-34h-100v-349q0 -39 44 -89q56 -63 123 -63q78 0 133 69q35 44 35 83v349h-99v34h204v-34z" />
    <glyph glyph-name="Udieresis" unicode="&#xdc;" 
d="M183 662q0 27 25 36q6 2 13 2q27 0 36 -25q2 -6 2 -13q0 -27 -25 -36q-6 -2 -13 -2q-27 0 -36 25q-2 6 -2 13zM340 662q0 27 25 36q6 2 13 2q27 0 36 -25q2 -6 2 -13q0 -27 -25 -36q-6 -2 -13 -2q-27 0 -36 25q-2 6 -2 13zM572 528h-71v-349q0 -60 -52 -118
q-62 -68 -149 -68q-91 0 -155 78q-46 56 -46 108v349h-71v34h204v-34h-100v-349q0 -39 44 -89q56 -63 123 -63q78 0 133 69q35 44 35 83v349h-99v34h204v-34z" />
    <glyph glyph-name="Yacute" unicode="&#xdd;" 
d="M492 799l-169 -175h-46l122 175h93zM317 34h58v-34h-152v34h57v239l-186 255h-35v34h141v-34h-60l160 -216l160 216h-60v34h141v-34h-35l-189 -255v-239z" />
    <glyph glyph-name="Thorn" unicode="&#xde;" 
d="M186 235h200q137 0 137 101q0 90 -95 100q-16 2 -42 2h-200v-203zM53 34h96v494h-96v34h230v-36h-96v-54h199q171 0 171 -136q0 -108 -118 -130q-25 -5 -53 -5h-200v-167h96v-34h-229v34z" />
    <glyph glyph-name="germandbls" unicode="&#xdf;" 
d="M318 630q87 0 146 -55q40 -37 40 -76q0 -43 -45 -70q-26 -15 -63 -20q-89 -12 -125 -53q-13 -15 -13 -31q0 -51 74 -76l146 -37q87 -28 93 -89q1 -5 1 -11q0 -65 -79 -98q-45 -19 -100 -19q-62 0 -113 33q-8 6 -11 -5l-16 -35h-34l15 33q9 20 9 39q0 18 -20 50q-2 4 -4 6
h35l13 -22q39 -55 113 -61q7 -1 14 -1q94 0 128 44q13 16 13 36q0 46 -69 69l-145 35q-91 29 -99 94q-1 7 -1 15q0 84 145 115q14 3 31 6q61 11 61 53q0 38 -49 69q-41 25 -92 25q-84 0 -139 -34q-36 -23 -36 -54l1 -504v-1h-110v34h73v358h-73v34h73v79q0 78 106 110
q49 15 106 15z" />
    <glyph glyph-name="agrave" unicode="&#xe0;" 
d="M46 672h93l122 -175h-47zM409 239q-105 27 -186 27q-75 0 -118 -51q-27 -32 -27 -72q0 -64 69 -99q42 -21 92 -21q80 0 133 48q17 15 37 39v129zM446 34h93v-34h-130v54q-62 -62 -147 -67q-11 -1 -23 -1q-89 0 -149 52q-49 43 -49 105q0 83 75 129q48 31 107 31
q84 0 186 -26v17q0 43 -57 76q-51 30 -115 30q-63 0 -160 -43l-14 34l59 23q71 23 115 23q98 0 162 -53q47 -39 47 -90v-260z" />
    <glyph glyph-name="aacute" unicode="&#xe1;" 
d="M429 672l-169 -175h-46l122 175h93zM409 239q-105 27 -186 27q-75 0 -118 -51q-27 -32 -27 -72q0 -64 69 -99q42 -21 92 -21q80 0 133 48q17 15 37 39v129zM446 34h93v-34h-130v54q-62 -62 -147 -67q-11 -1 -23 -1q-89 0 -149 52q-49 43 -49 105q0 83 75 129
q48 31 107 31q84 0 186 -26v17q0 43 -57 76q-51 30 -115 30q-63 0 -160 -43l-14 34l59 23q71 23 115 23q98 0 162 -53q47 -39 47 -90v-260z" />
    <glyph glyph-name="acircumflex" unicode="&#xe2;" 
d="M368 511l-14 -14l-115 93l-119 -93l-14 14l121 121h21zM409 239q-105 27 -186 27q-75 0 -118 -51q-27 -32 -27 -72q0 -64 69 -99q42 -21 92 -21q80 0 133 48q17 15 37 39v129zM446 34h93v-34h-130v54q-62 -62 -147 -67q-11 -1 -23 -1q-89 0 -149 52q-49 43 -49 105
q0 83 75 129q48 31 107 31q84 0 186 -26v17q0 43 -57 76q-51 30 -115 30q-63 0 -160 -43l-14 34l59 23q71 23 115 23q98 0 162 -53q47 -39 47 -90v-260z" />
    <glyph glyph-name="atilde" unicode="&#xe3;" 
d="M135 497q1 43 39 67q18 11 36 11q15 1 44 -22q16 -13 25 -12q34 3 54 30h5q3 -40 -25 -63q-14 -11 -32 -11q-23 1 -48 22q-15 13 -26 13q-40 -1 -62 -35h-10zM409 239q-105 27 -186 27q-75 0 -118 -51q-27 -32 -27 -72q0 -64 69 -99q42 -21 92 -21q80 0 133 48
q17 15 37 39v129zM446 34h93v-34h-130v54q-62 -62 -147 -67q-11 -1 -23 -1q-89 0 -149 52q-49 43 -49 105q0 83 75 129q48 31 107 31q84 0 186 -26v17q0 43 -57 76q-51 30 -115 30q-63 0 -160 -43l-14 34l59 23q71 23 115 23q98 0 162 -53q47 -39 47 -90v-260z" />
    <glyph glyph-name="adieresis" unicode="&#xe4;" 
d="M120 535q0 27 25 36q6 2 13 2q27 0 36 -25q2 -6 2 -13q0 -27 -25 -36q-6 -2 -13 -2q-27 0 -36 25q-2 6 -2 13zM277 535q0 27 25 36q6 2 13 2q27 0 36 -25q2 -6 2 -13q0 -27 -25 -36q-6 -2 -13 -2q-27 0 -36 25q-2 6 -2 13zM409 239q-105 27 -186 27q-75 0 -118 -51
q-27 -32 -27 -72q0 -64 69 -99q42 -21 92 -21q80 0 133 48q17 15 37 39v129zM446 34h93v-34h-130v54q-62 -62 -147 -67q-11 -1 -23 -1q-89 0 -149 52q-49 43 -49 105q0 83 75 129q48 31 107 31q84 0 186 -26v17q0 43 -57 76q-51 30 -115 30q-63 0 -160 -43l-14 34l59 23
q71 23 115 23q98 0 162 -53q47 -39 47 -90v-260z" />
    <glyph glyph-name="aring" unicode="&#xe5;" 
d="M237 679q50 0 77 -43q14 -22 14 -48q0 -50 -43 -77q-22 -14 -48 -14q-50 0 -77 43q-14 22 -14 48q0 50 43 77q22 14 48 14zM237 645q-34 0 -51 -31q-6 -12 -6 -26q0 -34 31 -51q12 -6 26 -6q34 0 51 31q6 12 6 26q0 34 -31 51q-12 6 -26 6zM409 239q-105 27 -186 27
q-75 0 -118 -51q-27 -32 -27 -72q0 -64 69 -99q42 -21 92 -21q80 0 133 48q17 15 37 39v129zM446 34h93v-34h-130v54q-62 -62 -147 -67q-11 -1 -23 -1q-89 0 -149 52q-49 43 -49 105q0 83 75 129q48 31 107 31q84 0 186 -26v17q0 43 -57 76q-51 30 -115 30q-63 0 -160 -43
l-14 34l59 23q71 23 115 23q98 0 162 -53q47 -39 47 -90v-260z" />
    <glyph glyph-name="ae" unicode="&#xe6;" 
d="M542 247q-7 90 -38 119q-25 24 -71 24q-94 0 -110 -119q-1 -11 -2 -24h221zM284 239l-65 21q-28 6 -59 6q-66 0 -89 -70q-8 -25 -8 -53q0 -62 45 -97q28 -23 67 -23q44 0 78 43q9 12 31 44v129zM310 79q-39 -53 -54 -66q-32 -27 -81 -27q-96 0 -136 71q-20 36 -20 86
q0 109 75 146q29 14 66 14q43 0 101 -19q13 -4 23 -7v17q0 106 -111 106q-50 0 -105 -34q-5 -3 -13 -8l-14 34q26 22 88 38q26 7 44 7q109 0 138 -83q37 73 122 73q116 0 141 -123q7 -38 7 -91h-260q0 -143 84 -170q17 -6 38 -6q50 0 85 40q-13 -15 17 20l23 -28
q-52 -63 -113 -68q-6 -1 -12 -1q-95 0 -133 79z" />
    <glyph glyph-name="ccedilla" unicode="&#xe7;" 
d="M322 7l-10 -54q62 13 98 -29q18 -22 18 -49q0 -51 -58 -75q-44 -18 -114 -11l5 34q92 -12 123 28q7 9 7 18q0 52 -60 53q-15 0 -33 -4l-25 -6l12 94zM454 377l5 22l33 -7l-12 -56q9 -13 19 -36l-35 -12q-35 70 -113 94q-28 8 -57 8q-90 0 -147 -66q-41 -49 -41 -111
q0 -81 69 -134q56 -42 128 -42q56 0 122 36q14 7 24 15l20 -33q-50 -41 -134 -53q-17 -2 -32 -2q-111 0 -180 75q-54 59 -54 138q0 96 76 160q64 54 149 54q79 0 146 -52q12 -8 14 2z" />
    <glyph glyph-name="egrave" unicode="&#xe8;" 
d="M102 662h93l122 -175h-47zM478 247q-16 77 -87 118q-45 25 -97 25q-90 0 -146 -66q-29 -34 -38 -77h368zM519 213h-413q0 -81 69 -134q54 -42 124 -42q80 0 154 48q5 4 10 7l24 -28q-62 -52 -157 -62q-16 -2 -31 -2q-101 0 -171 71q-59 61 -59 142q0 96 76 160
q64 54 149 54q103 0 170 -72q55 -60 55 -142z" />
    <glyph glyph-name="eacute" unicode="&#xe9;" 
d="M486 662l-169 -175h-46l122 175h93zM478 247q-16 77 -87 118q-45 25 -97 25q-90 0 -146 -66q-29 -34 -38 -77h368zM519 213h-413q0 -81 69 -134q54 -42 124 -42q80 0 154 48q5 4 10 7l24 -28q-62 -52 -157 -62q-16 -2 -31 -2q-101 0 -171 71q-59 61 -59 142q0 96 76 160
q64 54 149 54q103 0 170 -72q55 -60 55 -142z" />
    <glyph glyph-name="ecircumflex" unicode="&#xea;" 
d="M425 501l-14 -14l-115 93l-119 -93l-14 14l121 121h21zM478 247q-16 77 -87 118q-45 25 -97 25q-90 0 -146 -66q-29 -34 -38 -77h368zM519 213h-413q0 -81 69 -134q54 -42 124 -42q80 0 154 48q5 4 10 7l24 -28q-62 -52 -157 -62q-16 -2 -31 -2q-101 0 -171 71
q-59 61 -59 142q0 96 76 160q64 54 149 54q103 0 170 -72q55 -60 55 -142z" />
    <glyph glyph-name="edieresis" unicode="&#xeb;" 
d="M177 525q0 27 25 36q6 2 13 2q27 0 36 -25q2 -6 2 -13q0 -27 -25 -36q-6 -2 -13 -2q-27 0 -36 25q-2 6 -2 13zM334 525q0 27 25 36q6 2 13 2q27 0 36 -25q2 -6 2 -13q0 -27 -25 -36q-6 -2 -13 -2q-27 0 -36 25q-2 6 -2 13zM478 247q-16 77 -87 118q-45 25 -97 25
q-90 0 -146 -66q-29 -34 -38 -77h368zM519 213h-413q0 -81 69 -134q54 -42 124 -42q80 0 154 48q5 4 10 7l24 -28q-62 -52 -157 -62q-16 -2 -31 -2q-101 0 -171 71q-59 61 -59 142q0 96 76 160q64 54 149 54q103 0 170 -72q55 -60 55 -142z" />
    <glyph glyph-name="igrave" unicode="&#xec;" 
d="M289 392h-186v34h223v-392h173v-34h-396v34h186v358zM115 662h93l122 -175h-47z" />
    <glyph glyph-name="iacute" unicode="&#xed;" 
d="M289 392h-186v34h223v-392h173v-34h-396v34h186v358zM499 662l-169 -175h-46l122 175h93z" />
    <glyph glyph-name="icircumflex" unicode="&#xee;" 
d="M289 392h-186v34h223v-392h173v-34h-396v34h186v358zM438 501l-14 -14l-115 93l-119 -93l-14 14l121 121h21z" />
    <glyph glyph-name="idieresis" unicode="&#xef;" 
d="M289 392h-186v34h223v-392h173v-34h-396v34h186v358zM190 525q0 27 25 36q6 2 13 2q27 0 36 -25q2 -6 2 -13q0 -27 -25 -36q-6 -2 -13 -2q-27 0 -36 25q-2 6 -2 13zM347 525q0 27 25 36q6 2 13 2q27 0 36 -25q2 -6 2 -13q0 -27 -25 -36q-6 -2 -13 -2q-27 0 -36 25
q-2 6 -2 13z" />
    <glyph glyph-name="eth" unicode="&#xf0;" 
d="M294 390q-90 0 -147 -66q-41 -49 -41 -111q0 -83 67 -136q52 -41 121 -41q90 0 147 66q41 49 41 111q0 83 -67 136q-52 41 -121 41zM439 376q-45 89 -119 154l-82 -53l-18 28l72 48q-38 27 -71 37l12 36q44 -15 92 -52l77 51l18 -28l-68 -45q104 -94 147 -221
q20 -60 20 -116v-2q0 -96 -76 -160q-64 -54 -149 -54q-101 0 -169 72q-56 61 -56 142q0 96 76 160q64 54 149 54q81 0 145 -51z" />
    <glyph glyph-name="ntilde" unicode="&#xf1;" 
d="M197 500q1 43 39 67q18 11 36 11q15 1 44 -22q16 -13 25 -12q34 3 54 30h5q3 -40 -25 -63q-14 -11 -32 -11q-23 1 -48 22q-15 13 -26 13q-40 -1 -62 -35h-10zM145 376q33 18 39 21q80 43 137 43q68 0 125 -55q45 -44 45 -89v-262h85v-34h-208v34h87v262q0 35 -45 72
q-43 35 -89 35q-66 0 -171 -68q-3 -1 -5 -3v-298h85v-34h-208v34h87v358h-87v34h124q-3 -14 -1 -50z" />
    <glyph glyph-name="ograve" unicode="&#xf2;" 
d="M108 662h93l122 -175h-47zM300 427q101 0 169 -72q56 -61 56 -142q0 -96 -76 -160q-64 -54 -149 -54q-101 0 -169 72q-56 61 -56 142q0 96 76 160q64 54 149 54zM300 390q-88 0 -145 -65q-43 -49 -43 -112q0 -83 67 -136q52 -41 121 -41q95 0 149 67q39 47 39 110
q0 89 -73 141q-50 36 -115 36z" />
    <glyph glyph-name="oacute" unicode="&#xf3;" 
d="M492 662l-169 -175h-46l122 175h93zM300 427q101 0 169 -72q56 -61 56 -142q0 -96 -76 -160q-64 -54 -149 -54q-101 0 -169 72q-56 61 -56 142q0 96 76 160q64 54 149 54zM300 390q-88 0 -145 -65q-43 -49 -43 -112q0 -83 67 -136q52 -41 121 -41q95 0 149 67
q39 47 39 110q0 89 -73 141q-50 36 -115 36z" />
    <glyph glyph-name="ocircumflex" unicode="&#xf4;" 
d="M431 501l-14 -14l-115 93l-119 -93l-14 14l121 121h21zM300 427q101 0 169 -72q56 -61 56 -142q0 -96 -76 -160q-64 -54 -149 -54q-101 0 -169 72q-56 61 -56 142q0 96 76 160q64 54 149 54zM300 390q-88 0 -145 -65q-43 -49 -43 -112q0 -83 67 -136q52 -41 121 -41
q95 0 149 67q39 47 39 110q0 89 -73 141q-50 36 -115 36z" />
    <glyph glyph-name="otilde" unicode="&#xf5;" 
d="M198 487q1 43 39 67q18 11 36 11q15 1 44 -22q16 -13 25 -12q34 3 54 30h5q3 -40 -25 -63q-14 -11 -32 -11q-23 1 -48 22q-15 13 -26 13q-40 -1 -62 -35h-10zM300 427q101 0 169 -72q56 -61 56 -142q0 -96 -76 -160q-64 -54 -149 -54q-101 0 -169 72q-56 61 -56 142
q0 96 76 160q64 54 149 54zM300 390q-88 0 -145 -65q-43 -49 -43 -112q0 -83 67 -136q52 -41 121 -41q95 0 149 67q39 47 39 110q0 89 -73 141q-50 36 -115 36z" />
    <glyph glyph-name="odieresis" unicode="&#xf6;" 
d="M183 525q0 27 25 36q6 2 13 2q27 0 36 -25q2 -6 2 -13q0 -27 -25 -36q-6 -2 -13 -2q-27 0 -36 25q-2 6 -2 13zM340 525q0 27 25 36q6 2 13 2q27 0 36 -25q2 -6 2 -13q0 -27 -25 -36q-6 -2 -13 -2q-27 0 -36 25q-2 6 -2 13zM300 427q101 0 169 -72q56 -61 56 -142
q0 -96 -76 -160q-64 -54 -149 -54q-101 0 -169 72q-56 61 -56 142q0 96 76 160q64 54 149 54zM300 390q-88 0 -145 -65q-43 -49 -43 -112q0 -83 67 -136q52 -41 121 -41q95 0 149 67q39 47 39 110q0 89 -73 141q-50 36 -115 36z" />
    <glyph glyph-name="divide" unicode="&#xf7;" 
d="M242 370q0 19 19 26q4 2 9 2q19 0 26 -19q2 -4 2 -9q0 -19 -19 -26q-4 -2 -9 -2q-19 0 -26 19q-2 4 -2 9zM242 172q0 19 19 26q4 2 9 2q19 0 26 -19q2 -4 2 -9q0 -19 -19 -26q-4 -2 -9 -2q-19 0 -26 19q-2 4 -2 9zM77 290h385v-37h-385v37z" />
    <glyph glyph-name="oslash" unicode="&#xf8;" 
d="M300 427q70 0 128 -39l59 67l26 -22l-58 -66q70 -63 70 -154q0 -96 -76 -160q-64 -54 -149 -54q-72 0 -132 41l-60 -69l-26 22l60 68q-67 64 -67 152q0 96 76 160q64 54 149 54zM193 68q48 -32 107 -32q90 0 147 66q41 49 41 111q0 74 -57 126zM300 390q-90 0 -147 -66
q-41 -49 -41 -111q0 -72 54 -124l238 271q-47 30 -104 30z" />
    <glyph glyph-name="ugrave" unicode="&#xf9;" 
d="M65 662h93l122 -175h-47zM453 51q-33 -18 -39 -21q-80 -43 -137 -43q-68 0 -125 55q-45 44 -45 89v261h-85v34h122l-1 -294v-1q0 -35 45 -72q43 -35 89 -35q66 0 171 68q3 1 5 3v297h-85v34h122v-391h86v-35h-123v51z" />
    <glyph glyph-name="uacute" unicode="&#xfa;" 
d="M448 662l-169 -175h-46l122 175h93zM453 51q-33 -18 -39 -21q-80 -43 -137 -43q-68 0 -125 55q-45 44 -45 89v261h-85v34h122l-1 -294v-1q0 -35 45 -72q43 -35 89 -35q66 0 171 68q3 1 5 3v297h-85v34h122v-391h86v-35h-123v51z" />
    <glyph glyph-name="ucircumflex" unicode="&#xfb;" 
d="M387 501l-14 -14l-115 93l-119 -93l-14 14l121 121h21zM453 51q-33 -18 -39 -21q-80 -43 -137 -43q-68 0 -125 55q-45 44 -45 89v261h-85v34h122l-1 -294v-1q0 -35 45 -72q43 -35 89 -35q66 0 171 68q3 1 5 3v297h-85v34h122v-391h86v-35h-123v51z" />
    <glyph glyph-name="udieresis" unicode="&#xfc;" 
d="M139 525q0 27 25 36q6 2 13 2q27 0 36 -25q2 -6 2 -13q0 -27 -25 -36q-6 -2 -13 -2q-27 0 -36 25q-2 6 -2 13zM296 525q0 27 25 36q6 2 13 2q27 0 36 -25q2 -6 2 -13q0 -27 -25 -36q-6 -2 -13 -2q-27 0 -36 25q-2 6 -2 13zM453 51q-33 -18 -39 -21q-80 -43 -137 -43
q-68 0 -125 55q-45 44 -45 89v261h-85v34h122l-1 -294v-1q0 -35 45 -72q43 -35 89 -35q66 0 171 68q3 1 5 3v297h-85v34h122v-391h86v-35h-123v51z" />
    <glyph glyph-name="yacute" unicode="&#xfd;" 
d="M492 662l-169 -175h-46l122 175h93zM284 -168h-284v34h213l66 134l-193 392h-76v34h191v-34h-74l173 -350l173 350h-74v34h191v-34h-76l-260 -526h30v-34z" />
    <glyph glyph-name="thorn" unicode="&#xfe;" 
d="M343 36q88 0 145 65q43 49 43 112q0 83 -68 136q-51 41 -119 41q-87 0 -144 -63q-44 -48 -44 -114q0 -89 72 -141q50 -36 115 -36zM119 -146v736l-78 -15l-6 34l121 23v-301q55 78 151 93q18 3 36 3q103 0 170 -74q55 -60 55 -140q0 -97 -76 -161q-63 -53 -148 -53
q-103 0 -171 75q-9 10 -17 21v-241h123v-34h-239v34h79z" />
    <glyph glyph-name="ydieresis" unicode="&#xff;" 
d="M183 525q0 27 25 36q6 2 13 2q27 0 36 -25q2 -6 2 -13q0 -27 -25 -36q-6 -2 -13 -2q-27 0 -36 25q-2 6 -2 13zM340 525q0 27 25 36q6 2 13 2q27 0 36 -25q2 -6 2 -13q0 -27 -25 -36q-6 -2 -13 -2q-27 0 -36 25q-2 6 -2 13zM284 -168h-284v34h213l66 134l-193 392h-76v34
h191v-34h-74l173 -350l173 350h-74v34h191v-34h-76l-260 -526h30v-34z" />
    <glyph glyph-name="iogonek" unicode="&#x12f;" 
d="M280 6h42q-38 -6 -48 -49q-4 -15 -2 -31q5 -35 65 -45q53 -9 85 35l20 -25q-35 -56 -100 -55q-62 1 -93 42q-17 21 -17 48q0 54 48 80zM344 584v-97h-74v97h74zM289 392h-186v34h223v-392h173v-34h-396v34h186v358z" />
    <glyph glyph-name="Ohungarumlaut" unicode="&#x150;" 
d="M401 799l-169 -175h-46l122 175h93zM583 799l-169 -175h-46l122 175h93zM300 564q103 0 173 -89q65 -82 65 -194q0 -124 -77 -208q-68 -75 -161 -75q-103 0 -173 89q-65 82 -65 194q0 124 77 208q68 75 161 75zM300 527q-86 0 -146 -77q-55 -71 -55 -169q0 -116 73 -190
q56 -56 128 -56q86 0 146 77q55 71 55 169q0 116 -73 190q-56 56 -128 56z" />
    <glyph glyph-name="ohungarumlaut" unicode="&#x151;" 
d="M401 662l-169 -175h-46l122 175h93zM583 662l-169 -175h-46l122 175h93zM300 427q101 0 169 -72q56 -61 56 -142q0 -96 -76 -160q-64 -54 -149 -54q-101 0 -169 72q-56 61 -56 142q0 96 76 160q64 54 149 54zM300 390q-88 0 -145 -65q-43 -49 -43 -112q0 -83 67 -136
q52 -41 121 -41q95 0 149 67q39 47 39 110q0 89 -73 141q-50 36 -115 36z" />
    <glyph glyph-name="OE" unicode="&#x152;" 
d="M270 37v488q-87 0 -146 -76q-55 -70 -55 -168q0 -116 73 -188q56 -56 128 -56zM481 402v-143h-34v62h-140v-287h219l12 87h34l-12 -121h-290q-103 0 -173 88q-65 81 -65 193q0 123 77 207q68 74 161 74h290l9 -115h-34l-9 81h-219v-173h140v47h34z" />
    <glyph glyph-name="oe" unicode="&#x153;" 
d="M551 247q-6 94 -41 123q-25 20 -67 20q-94 0 -110 -119q-1 -11 -2 -24h220zM173 428q74 0 120 -76q8 -14 15 -30q32 105 135 105q116 0 141 -123q7 -38 7 -91h-260q0 -143 84 -170q17 -6 38 -6q50 0 85 40q-13 -15 17 20l23 -28q-52 -63 -113 -68q-6 -1 -12 -1
q-111 0 -144 106q-33 -79 -97 -101q-19 -7 -39 -7q-75 0 -122 78q-36 60 -36 137q0 102 58 167q43 48 100 48zM173 391q-55 0 -92 -61q-30 -50 -30 -117q0 -96 55 -149q31 -29 67 -29q49 0 88 64q33 54 33 114q0 79 -46 136q-34 42 -75 42z" />
    <glyph glyph-name="Scaron" unicode="&#x160;" 
d="M513 751l-120 -121h-21l-121 121l14 14l119 -93l115 93zM460 570q-12 -33 -12 -57q0 -49 24 -75h-32q-2 1 -3 2q-20 47 -70 75q-31 18 -63 18q-82 0 -122 -47q-20 -24 -20 -54q0 -67 75 -100q12 -5 104 -34q91 -29 118 -73q17 -28 17 -66q0 -82 -78 -125
q-46 -25 -100 -25q-63 0 -114 43q-8 8 -11 -7q-6 -23 -15 -45h-34l14 42q9 27 9 44q0 25 -20 63q-2 3 -3 5h34l13 -29q37 -64 103 -77q12 -2 24 -2q76 0 117 49q24 28 24 64q0 61 -73 92q-9 4 -101 34q-93 29 -121 75q-19 30 -19 72q0 80 84 118q44 20 95 20q52 0 101 -36
q10 -8 12 1q3 22 9 35h34z" />
    <glyph glyph-name="scaron" unicode="&#x161;" 
d="M513 613l-120 -121h-21l-121 121l14 14l119 -93l115 93zM460 432q-12 -24 -12 -49q0 -40 24 -62h-34q-21 39 -73 61q-31 13 -61 13q-104 0 -134 -43q-8 -12 -8 -27q0 -51 74 -76l146 -37q87 -28 93 -89q1 -5 1 -11q0 -64 -78 -98q-46 -19 -100 -19q-63 0 -114 33
q-8 6 -11 -5q-4 -13 -15 -35h-34l14 33q9 20 9 39t-19 50q-2 4 -4 6h34l13 -22q39 -55 113 -61q7 -1 14 -1q94 0 128 44q13 16 13 36q0 46 -69 69l-145 35q-91 29 -99 94q-1 7 -1 15q0 62 84 92q44 15 95 15q50 0 101 -27q10 -7 12 0q3 18 9 27h34z" />
    <glyph glyph-name="Ydieresis" unicode="&#x178;" 
d="M183 662q0 27 25 36q6 2 13 2q27 0 36 -25q2 -6 2 -13q0 -27 -25 -36q-6 -2 -13 -2q-27 0 -36 25q-2 6 -2 13zM340 662q0 27 25 36q6 2 13 2q27 0 36 -25q2 -6 2 -13q0 -27 -25 -36q-6 -2 -13 -2q-27 0 -36 25q-2 6 -2 13zM317 34h58v-34h-152v34h57v239l-186 255h-35v34
h141v-34h-60l160 -216l160 216h-60v34h141v-34h-35l-189 -255v-239z" />
    <glyph glyph-name="Zdotaccent" unicode="&#x17b;" 
d="M334 721v-97h-74v97h74zM432 34l11 156h35l-14 -190h-339v20l287 508h-248l-7 -153h-35l9 187h331v-23l-286 -505h256z" />
    <glyph glyph-name="Zcaron" unicode="&#x17d;" 
d="M427 745l-120 -121h-21l-121 121l14 14l119 -93l115 93zM432 34l11 156h35l-14 -190h-339v20l287 508h-248l-7 -153h-35l9 187h331v-23l-286 -505h256z" />
    <glyph glyph-name="zcaron" unicode="&#x17e;" 
d="M422 608l-120 -121h-21l-121 121l14 14l119 -93l115 93zM499 392l-348 -358h332v36h34v-70h-418v34l348 358h-330v-36h-34v70h416v-34z" />
    <glyph glyph-name="florin" unicode="&#x192;" 
d="M258 -43q0 -61 -65 -101q-41 -24 -84 -24q-85 0 -148 47l21 30q57 -40 126 -40q54 0 91 40q22 23 22 48v435h-73v34h73v79q0 61 65 101q41 24 84 24q85 0 148 -47l-21 -30q-57 40 -126 40q-54 0 -91 -40q-22 -23 -22 -48v-79h250v-34h-250v-435z" />
    <glyph glyph-name="uni0198" unicode="&#x198;" 
d="M203 289q94 -26 166 -125q35 -46 81 -130h118v-34h-139q-83 150 -143 203q-50 44 -116 56q-12 -10 -20 -16v-209h91v-34h-209v34h82v494h-82v34h209v-34h-91v-237q28 25 170 189q16 18 27 31q45 52 108 52q47 0 61 -45q0 -2 1 -4q12 -49 -22 -70q-7 -5 -15 -7
q-23 -7 -32 18q-11 28 11 47q7 5 17 8q12 2 21 -1q2 15 -23 27q-9 4 -14 4h-20q-16 0 -126 -127q-87 -101 -111 -124z" />
    <glyph glyph-name="circumflex" unicode="&#x2c6;" 
d="M431 400l-14 -14l-115 93l-119 -93l-14 14l121 121h21z" />
    <glyph glyph-name="tilde" unicode="&#x2dc;" 
d="M283 708q1 43 39 67q18 11 36 11q15 1 44 -22q16 -13 25 -12q34 3 54 30h5q3 -40 -25 -63q-14 -11 -32 -11q-23 1 -48 22q-15 13 -26 13q-40 -1 -62 -35h-10z" />
    <glyph glyph-name="uni02EE" unicode="&#x2ee;" 
d="M482 627l-139 -204h-46l92 204h93zM303 627l-138 -204h-47l92 204h93z" />
    <glyph glyph-name="gravecomb" unicode="&#x300;" horiz-adv-x="0" 
d="M-144 715h79l104 -149h-39z" />
    <glyph glyph-name="uni0311" unicode="&#x311;" horiz-adv-x="0" 
d="M-118 691h-24q-20 44 -80 44q-66 0 -79 -44h-24q6 60 57 85q22 11 47 11q60 0 89 -53q11 -19 14 -43z" />
    <glyph glyph-name="uni0312" unicode="&#x312;" horiz-adv-x="0" 
d="M-165 734q15 53 70 80q16 7 32 10l13 -16q-24 -6 -40 -30q-12 -19 -2 -33q28 -17 23 -53q-6 -36 -39 -44q-8 -2 -18 -1q-40 2 -49 39q-6 27 10 48z" />
    <glyph glyph-name="uni0313" unicode="&#x313;" horiz-adv-x="0" 
d="M-99 672q-15 -53 -70 -80q-16 -7 -32 -10l-13 16q24 6 40 30q12 19 2 33q-28 17 -23 53q6 36 39 44q8 2 18 1q40 -2 49 -39q6 -27 -10 -48z" />
    <glyph glyph-name="uni0314" unicode="&#x314;" horiz-adv-x="0" 
d="M-189 672q-21 27 -6 59q13 26 45 28q41 3 54 -34q12 -34 -12 -58q-3 -3 -8 -6q-15 -21 16 -48q13 -12 26 -15l-13 -16q-58 11 -89 61q-9 14 -13 29z" />
    <glyph glyph-name="uni0315" unicode="&#x315;" horiz-adv-x="0" 
d="M-99 672q-15 -53 -70 -80q-16 -7 -32 -10l-13 16q24 6 40 30q12 19 2 33q-28 17 -23 53q6 36 39 44q8 2 18 1q40 -2 49 -39q6 -27 -10 -48z" />
    <glyph glyph-name="uni0316" unicode="&#x316;" horiz-adv-x="0" 
d="M-486 -16h79l104 -149h-39z" />
    <glyph glyph-name="afii10036" unicode="&#x422;" 
d="M522 358l-10 170h-194v-494h149v-34h-333v34h148v494h-193l-10 -170h-35l10 204h491l11 -204h-34z" />
    <glyph glyph-name="afii10075" unicode="&#x439;" 
d="M152 122l284 232v38h-80v34h197v-34h-81v-358h81v-34h-197v34h80v269l-285 -232v-37h79v-34h-197v34h82v358h-82v34h197v-34h-78v-270zM397 583q-8 -63 -59 -87q-21 -9 -44 -9q-60 0 -89 51q-12 20 -15 45h24q13 -44 80 -44q59 0 79 44h24z" />
    <glyph glyph-name="endash" unicode="&#x2013;" 
d="M118 290h311v-37h-311v37z" />
    <glyph glyph-name="emdash" unicode="&#x2014;" 
d="M32 290h537v-37h-537v37z" />
    <glyph glyph-name="quoteleft" unicode="&#x2018;" 
d="M197 453l138 204h46l-91 -204h-93z" />
    <glyph glyph-name="quoteright" unicode="&#x2019;" 
d="M381 657l-138 -204h-46l91 204h93z" />
    <glyph glyph-name="quotesinglbase" unicode="&#x201a;" 
d="M197 -102l138 204h46l-91 -204h-93z" />
    <glyph glyph-name="quotedblleft" unicode="&#x201c;" 
d="M141 453l139 204h46l-92 -204h-93zM320 453l138 204h46l-91 -204h-93z" />
    <glyph glyph-name="quotedblright" unicode="&#x201d;" 
d="M515 627l-138 -204h-47l92 204h93zM336 627l-138 -204h-46l91 204h93z" />
    <glyph glyph-name="quotedblbase" unicode="&#x201e;" 
d="M127 -102l139 204h46l-92 -204h-93zM334 -102l138 204h46l-91 -204h-93z" />
    <glyph glyph-name="dagger" unicode="&#x2020;" 
d="M117 516h166v158h34v-158h167v-34h-167v-518h-34v518h-166v34z" />
    <glyph glyph-name="daggerdbl" unicode="&#x2021;" 
d="M117 198h166v284h-167v34h167v161h34v-161h167v-34h-167v-284h167v-34h-167v-200h-34v200h-166v34z" />
    <glyph glyph-name="bullet" unicode="&#x2022;" 
d="M296 312q50 3 69 -40q17 -41 -8 -75q-18 -25 -53 -27q-50 -3 -69 40q-17 41 8 75q18 25 53 27z" />
    <glyph glyph-name="ellipsis" unicode="&#x2026;" 
d="M53 46q0 31 31 45q12 5 25 5q37 0 52 -30q5 -9 5 -20q0 -31 -32 -45q-12 -5 -25 -5q-36 0 -51 30q-5 9 -5 20zM251 46q0 31 31 45q12 5 25 5q37 0 52 -30q5 -9 5 -20q0 -31 -32 -45q-12 -5 -25 -5q-36 0 -51 30q-5 9 -5 20zM434 46q0 31 32 45q12 5 25 5q36 0 51 -30
q5 -9 5 -20q0 -31 -31 -45q-12 -5 -25 -5q-37 0 -52 30q-5 9 -5 20z" />
    <glyph glyph-name="perthousand" unicode="&#x2030;" 
d="M22 198l361 248l20 -31l-361 -248zM107 540q53 0 82 -42q15 -22 15 -48q0 -50 -47 -77q-23 -13 -50 -13q-53 0 -82 42q-15 22 -15 48q0 50 47 77q23 13 50 13zM107 506q-39 0 -57 -32q-6 -12 -6 -24q0 -33 33 -49q14 -7 30 -7q39 0 57 32q6 12 6 24q0 33 -33 49
q-14 7 -30 7zM225 180q53 0 82 -42q15 -22 15 -48q0 -50 -47 -77q-23 -13 -50 -13q-53 0 -82 42q-15 22 -15 48q0 50 47 77q23 13 50 13zM225 146q-39 0 -57 -32q-6 -12 -6 -24q0 -33 33 -49q14 -7 30 -7q39 0 57 32q6 12 6 24q0 33 -33 49q-14 7 -30 7zM464 180
q53 0 82 -42q15 -22 15 -48q0 -50 -47 -77q-23 -13 -50 -13q-53 0 -82 42q-15 22 -15 48q0 50 47 77q23 13 50 13zM464 146q-39 0 -57 -32q-6 -12 -6 -24q0 -33 33 -49q14 -7 30 -7q39 0 57 32q6 12 6 24q0 33 -33 49q-14 7 -30 7z" />
    <glyph glyph-name="guilsinglleft" unicode="&#x2039;" 
d="M459 422l-215 -182l215 -181l-30 -32l-288 213l289 213z" />
    <glyph glyph-name="guilsinglright" unicode="&#x203a;" 
d="M184 422l28 31l289 -213l-288 -213l-30 32l215 181z" />
    <glyph glyph-name="Euro" unicode="&#x20ac;" 
d="M79 314h28q3 31 10 54h-56l17 34h50q41 101 127 142q42 20 88 20q84 0 149 -62l-30 -23q-53 48 -118 48q-87 0 -147 -79q-16 -21 -28 -46h370l-17 -34h-367q-8 -28 -11 -54h395l-17 -34h-379q0 -115 72 -188q56 -57 128 -57q71 0 142 74q5 6 11 12l32 -18
q-62 -91 -159 -103q-12 -2 -25 -2q-104 0 -174 90q-64 81 -64 192h-45z" />
    <glyph glyph-name="trademark" unicode="&#x2122;" 
d="M226 602l-4 68h-77v-198h59v-14h-132v14h58v198h-77l-4 -68h-13l4 81h196l4 -81h-14zM490 669v-198h19v-13h-75v13h42v198h-2l-76 -163h-8l-77 163h-3v-198h42v-13h-75v13h19v198h-19v14h48v-5l69 -145l68 146v4h48v-14h-20z" />
  </font>
</defs>
</svg>
